<?xml version="1.0" standalone="no"?>
<!DOCTYPE svg PUBLIC "-//W3C//DTD SVG 1.1//EN" "http://www.w3.org/Graphics/SVG/1.1/DTD/svg11.dtd" >
<svg xmlns="http://www.w3.org/2000/svg">
<metadata>Generated by IcoMoon</metadata>
<defs>
<font id="divipixel" horiz-adv-x="1024">
<font-face units-per-em="1024" ascent="960" descent="-64" />
<missing-glyph horiz-adv-x="1024" />
<glyph unicode="&#x20;" horiz-adv-x="512" d="" />
<glyph unicode="&#xe900;" glyph-name="divi-pixel" d="M321.6 398.4h97.6v97.6h-185.6v-193.6h88zM948.8 603.2c-35.2 59.2-84.8 105.6-152 137.6-65.6 32-142.4 49.6-230.4 49.6h-148.8v-92.8h-184v-97.6h310.4c68.8 0 123.2-17.6 161.6-52.8 40-35.2 59.2-83.2 59.2-147.2s-19.2-112-59.2-147.2c-40-35.2-92.8-51.2-161.6-51.2h-78.4v99.2h-142.4v-104h-89.6v-190.4h332.8c88 0 164.8 17.6 230.4 51.2s115.2 80 152 139.2c35.2 59.2 52.8 126.4 52.8 203.2s-17.6 144-52.8 203.2zM419.2 104h-96v91.2h96v-91.2zM222.4 892.8h99.2v-99.2h-99.2v99.2zM120 792h99.2v-96h-99.2v96zM22.4 691.2h99.2v-96h-99.2v96zM121.6 595.2h99.2v-99.2h-99.2v99.2zM25.6 396.8h94.4v-97.6h-94.4v97.6zM120 299.2h99.2v-100.8h-99.2v100.8zM25.6 102.4h94.4v-99.2h-94.4v99.2z" />
<glyph unicode="&#xe901;" glyph-name="divi-pixel-full" d="M272 480h40v-131.2h-40v131.2zM292.8 537.6c-6.4 0-12.8-1.6-17.6-6.4s-6.4-9.6-6.4-14.4c0-6.4 1.6-11.2 6.4-14.4s9.6-6.4 17.6-6.4c6.4 0 12.8 1.6 17.6 6.4s6.4 9.6 6.4 14.4c0 6.4-1.6 11.2-6.4 14.4s-11.2 6.4-17.6 6.4zM400 388.8l-28.8 91.2h-41.6l46.4-131.2h49.6l44.8 131.2h-41.6zM488 480h40v-131.2h-40v131.2zM507.2 537.6c-6.4 0-12.8-1.6-17.6-6.4s-6.4-9.6-6.4-14.4c0-6.4 1.6-11.2 6.4-14.4s9.6-6.4 17.6-6.4c6.4 0 12.8 1.6 17.6 6.4 4.8 3.2 6.4 9.6 6.4 14.4 0 6.4-1.6 11.2-6.4 14.4-3.2 4.8-9.6 6.4-17.6 6.4zM608 515.2h-48v-164.8h16v68.8h32c17.6 0 32 4.8 41.6 12.8s14.4 20.8 14.4 35.2c0 14.4-4.8 27.2-14.4 35.2s-22.4 12.8-41.6 12.8zM638.4 441.6c-6.4-6.4-16-8-30.4-8h-32v67.2h32c14.4 0 24-3.2 30.4-8 6.4-6.4 9.6-14.4 9.6-25.6s-3.2-20.8-9.6-25.6zM697.6 526.4c-3.2 0-6.4-1.6-8-3.2s-3.2-4.8-3.2-8c0-3.2 1.6-6.4 3.2-8s4.8-3.2 8-3.2 6.4 1.6 8 3.2c1.6 1.6 3.2 4.8 3.2 8s-1.6 6.4-3.2 8c-1.6 1.6-3.2 3.2-8 3.2zM689.6 476.8h16v-128h-16v128zM832 476.8h-19.2l-32-49.6-33.6 49.6h-19.2l41.6-60.8-41.6-67.2h19.2l32 52.8 35.2-52.8h19.2l-43.2 64zM971.2 422.4c0 9.6-1.6 19.2-6.4 28.8-4.8 8-11.2 16-20.8 20.8s-19.2 8-32 8c-12.8 0-22.4-3.2-32-8s-17.6-12.8-22.4-22.4c-4.8-9.6-8-20.8-8-35.2s3.2-25.6 8-35.2c4.8-9.6 12.8-17.6 22.4-22.4s20.8-8 32-8c16 0 30.4 4.8 40 12.8 11.2 8 17.6 19.2 19.2 33.6h-17.6c-1.6-9.6-6.4-17.6-14.4-24s-17.6-8-28.8-8c-8 0-16 1.6-22.4 4.8s-12.8 8-16 16c-4.8 8-6.4 16-6.4 27.2h105.6c0 1.6 0 6.4 0 11.2zM864 417.6c0 11.2 3.2 19.2 6.4 27.2 4.8 6.4 9.6 12.8 16 16s14.4 4.8 22.4 4.8c8 0 16-1.6 22.4-4.8s12.8-8 16-16c4.8-6.4 6.4-16 4.8-27.2h-88zM1000 523.2h16v-172.8h-16v172.8zM80 440h24v24h-44.8v-48h20.8zM198.4 523.2c-17.6 8-35.2 12.8-57.6 12.8h-36.8v-22.4h-44.8v-24h76.8c17.6 0 30.4-4.8 40-12.8s14.4-20.8 14.4-36.8c0-16-4.8-27.2-14.4-36.8-9.6-8-22.4-12.8-40-12.8h-19.2v24h-35.2v-25.6h-22.4v-46.4h81.6c22.4 0 40 4.8 56 12.8s28.8 19.2 36.8 35.2c8 14.4 12.8 32 12.8 49.6 0 19.2-4.8 35.2-12.8 49.6s-19.2 25.6-35.2 33.6zM104 366.4h-22.4v22.4h24v-22.4zM56 561.6h24v-24h-24v24zM30.4 536h24v-24h-24v24zM6.4 512h24v-24h-24v24zM32 488h24v-24h-24v24zM8 438.4h24v-24h-24v24zM30.4 414.4h24v-24h-24v24zM8 366.4h22.4v-24h-22.4v24z" />
<glyph unicode="&#xe902;" glyph-name="settings" d="M512 228.734c-120.422 0-218.39 98.352-218.39 219.25s97.968 219.258 218.39 219.258 218.39-98.36 218.39-219.258-97.968-219.25-218.39-219.25zM512 635.242c-102.781 0-186.39-84-186.39-187.258 0-103.25 83.61-187.25 186.39-187.25s186.39 84 186.39 187.25c0 103.258-83.61 187.258-186.39 187.258zM565.813-57.070h-107.626c-17.453 0-31.656 15.406-31.656 34.344l-9.171 98.179c-35.344 9.032-69.109 23.125-100.688 42.024l-76.702-63.93c-5.734-5.813-14.859-9.702-24-9.702-0.016 0-0.032 0-0.046 0-8.266 0.008-15.922 3.141-21.563 8.813l-76.094 76.43c-12.328 12.366-11.485 33.328 1.891 46.71l62.702 76.016c-18.843 31.766-32.891 65.702-41.891 101.187l-99.155 9.302c-0.032 0-0.078 0-0.125 0-17.36 0-32.672 14.203-32.672 31.648v108.070c0 17.493 15.39 31.726 34.298 31.726l97.656 9.203c8.984 35.493 23.046 69.445 41.891 101.211l-63.734 77.157c-12.344 12.298-13.171 33.242-0.843 45.586l76.078 76.422c11.906 11.962 33.781 11.078 46.688-1.859l75.61-62.962c31.578 18.891 65.36 32.984 100.688 42.024l9.25 99.64c-0.062 17.477 14.141 32.899 31.594 32.899h107.626c17.453 0 31.656-15.422 31.656-34.374l9.187-98.165c35.328-9.024 69.094-23.117 100.672-41.992l76.734 63.899c10.797 11.032 33.672 12.891 45.594 0.883l76.109-76.43c12.298-12.344 11.437-33.29-1.891-46.688l-62.702-76.032c18.829-31.742 32.875-65.696 41.875-101.211l98.515-9.219c18.515-0.422 33.422-14.493 33.422-31.718v-108.070c0-17.493-15.374-31.718-34.266-31.718l-97.672-9.227c-8.984-35.469-23.032-69.414-41.875-101.179l63.718-77.149c12.344-12.274 13.171-33.219 0.875-45.586l-76.109-76.445c-5.64-5.664-13.298-8.797-21.563-8.813-0.032 0-0.046 0-0.062 0-9.141 0-18.25 3.875-25.032 10.64l-75.656 63c-31.563-18.899-65.328-32.992-100.672-42.024l-9.266-99.664c0.061-17.451-14.142-32.858-31.595-32.858zM314.046 156.946l9.859-6.32c34.578-22.141 72.187-37.835 111.797-46.664l11.374-2.531 11.39-122.68c0.062-3.109 0.718-4 0.891-4.149l106.078 0.328c-0.422 0.141 0.032 0.984 0.032 2.344l11.469 124.157 11.374 2.531c39.626 8.821 77.219 24.523 111.781 46.656l9.859 6.328 94.594-78.851c2.109-2.016 3.187-2.258 3.485-2.258 0 0 0.016 0 0.032 0l74.813 75.618c-0.406-0.234-0.656 0.758-1.64 1.742l-79.406 96.008 6.219 9.805c22.046 34.789 37.672 72.57 46.453 112.304l2.515 11.39 122.203 11.461c3.078 0.070 3.922 0.71 4.062 0.883l-0.298 106.656c-0.094-0.39-0.891 0.038-2.266 0.046l-1.485 0.070-122.219 11.437-2.515 11.398c-8.781 39.781-24.406 77.57-46.453 112.312l-6.219 9.805 78.36 94.906c2.187 2.29 2.328 3.414 2.312 3.648l-75.234 75.133c0.171-0.39-0.702-0.672-1.626-1.602l-95.688-79.781-9.859 6.312c-34.578 22.117-72.187 37.805-111.781 46.634l-11.374 2.531-11.406 122.656c-0.062 3.141-0.734 4.038-0.906 4.187l-106.062-0.328c0.437-0.141-0.032-0.992-0.032-2.374l-11.453-124.133-11.374-2.539c-39.61-8.835-77.219-24.531-111.797-46.664l-9.875-6.32-94.578 78.851c-2.234 2.133-3.422 2.266-3.469 2.258l-74.829-75.618c0.499 0.312 0.656-0.75 1.64-1.734l79.406-96.024-6.219-9.805c-22.062-34.773-37.688-72.563-46.469-112.312l-2.515-11.398-122.203-11.437c-3.078-0.070-3.938-0.718-4.078-0.891l0.298-106.648c0.094 0.406 0.938-0.046 2.298-0.046l123.688-11.531 2.515-11.39c8.781-39.742 24.406-77.523 46.469-112.298l6.219-9.805-78.408-94.906c-2.171-2.282-2.312-3.382-2.298-3.61l75.25-75.179c-0.187 0.406 0.718 0.688 1.656 1.634l95.642 79.797z" />
<glyph unicode="&#xe903;" glyph-name="customizer" d="M718.563 183.485c-0.016 0-0.016 0-0.016 0-25.515-0.008-49.501-10.078-67.515-28.36-14.514-14.715-23.147-33.066-26.299-52.179h-605.467c-8.843 0-16-7.165-16-16s7.157-16 16-16h605.466c3.15-19.117 11.784-37.47 26.299-52.187 18.016-18.282 42-28.352 67.515-28.36 0 0 0 0 0.016 0 25.515 0 49.501 10.078 67.531 28.36 37.062 37.602 37.062 98.766 0 136.366-18.030 18.29-42.014 28.36-67.53 28.36zM763.312 41.227c-11.968-12.141-27.859-18.829-44.75-18.829-0.016 0-0.016 0-0.016 0-16.891 0.008-32.766 6.688-44.734 18.829-24.859 25.211-24.859 66.219 0 91.43 11.968 12.141 27.843 18.821 44.734 18.829 16.891 0 32.797-6.688 44.766-18.829 24.845-25.205 24.845-66.227 0-91.43zM898.219 793.054h106.515c8.843 0 16 7.165 16 16s-7.157 16-16 16h-106.515c-8.843 0-16-7.165-16-16s7.155-16 16-16zM19.266 793.054h628.43c3.149-19.112 11.781-37.461 26.288-52.179 18.032-18.29 42.016-28.36 67.531-28.36 25.531 0 49.515 10.070 67.547 28.36 37.062 37.602 37.062 98.766 0 136.366-18.032 18.29-42.016 28.36-67.547 28.36-25.515 0-49.501-10.070-67.531-28.36-14.51-14.72-23.141-33.072-26.29-52.187h-628.429c-8.843 0-16-7.165-16-16s7.157-16 16-16zM696.766 854.773c11.968 12.141 27.859 18.829 44.75 18.829 16.906 0 32.797-6.688 44.766-18.829 24.843-25.203 24.843-66.227 0-91.43-23.938-24.282-65.578-24.282-89.515 0-24.846 25.205-24.846 66.227-0.002 91.43zM1004.734 464h-541.594c-8.843 0-16-7.165-16-16s7.157-16 16-16h541.594c8.843 0 16 7.165 16 16s-7.157 16-16 16zM19.266 432h187.618c3.149-19.117 11.779-37.467 26.288-52.187 18.016-18.282 42-28.36 67.531-28.36s49.515 10.078 67.531 28.36c37.078 37.602 37.078 98.773 0 136.374-18.016 18.282-42 28.36-67.531 28.36s-49.515-10.078-67.531-28.36c-14.509-14.72-23.139-33.072-26.288-52.187h-187.618c-8.843 0-16-7.165-16-16s7.157-16 16-16zM255.954 493.718c11.968 12.141 27.859 18.829 44.75 18.829s32.781-6.688 44.75-18.829c24.859-25.211 24.859-66.227 0-91.437-23.938-24.282-65.563-24.282-89.501 0-24.845 25.211-24.845 66.226 0 91.437zM1004.734 102.946h-118.75c-8.843 0-16-7.165-16-16s7.157-16 16-16h118.75c8.843 0 16 7.165 16 16s-7.157 16-16 16z" />
<glyph unicode="&#xe904;" glyph-name="cart" d="M891.125 246.125c7.157 0 13.445 4.75 15.39 11.64l112.336 396.531c1.374 4.851 0.382 10.070-2.68 14.078-3.062 4-7.859 6.594-12.883 6.282l-757.797-8.29-48.016 180.499c-1.195 4.515-4.304 8.274-8.507 10.304l-161.475 77.893c-7.962 3.829-17.531 0.507-21.368-7.461-3.835-7.962-0.499-17.523 7.461-21.368l154.859-74.696 49.29-185.304c0.024-0.086 0.046-0.171 0.070-0.25l124.498-467.992c-46.014-13.557-79.749-56.366-79.749-107.040 0-61.531 49.696-111.594 110.781-111.594 55.678 0 101.763 41.635 109.507 95.594h289.117c7.746-53.958 53.837-95.594 109.515-95.594 61.086 0 110.781 50.062 110.781 111.594s-49.696 111.578-110.781 111.578c-55.678 0-101.77-41.621-109.515-95.578h-289.115c-7.704 53.669-53.347 95.091-108.627 95.533l-16.928 63.638h533.837zM982.234 642.422l-103.203-364.298h-530.258l-94.789 356.336 728.25 7.962zM881.477 150.531c43.437 0 78.781-35.702 78.781-79.578 0-43.891-35.344-79.594-78.781-79.594-43.445 0-78.789 35.702-78.789 79.594 0 43.875 35.344 79.578 78.789 79.578zM452.117 70.954c0-43.891-35.344-79.594-78.781-79.594s-78.781 35.702-78.781 79.594c0 43.875 35.344 79.578 78.781 79.578s78.781-35.702 78.781-79.578z" />
<glyph unicode="&#xe905;" glyph-name="back-to-top" d="M512 299.906c-8.835 0-16 7.157-16 16v613.344c0 8.835 7.165 16 16 16s16-7.165 16-16v-613.344c0-8.843-7.165-16-16-16zM654.618 792.523c-3.851 0-7.71 1.382-10.781 4.187l-131.837 120.39-131.835-120.39c-6.515-5.968-16.634-5.501-22.602 1.024-5.962 6.523-5.501 16.648 1.024 22.602l142.626 130.242c6.109 5.578 15.469 5.578 21.578 0l142.626-130.242c6.523-5.954 6.984-16.078 1.024-22.602-3.158-3.453-7.478-5.211-11.822-5.211zM872.656-58.766h-721.312c-8.835 0-16 7.157-16 16v717.328c0 8.835 7.165 16 16 16h221.242c8.835 0 16-7.165 16-16s-7.165-16-16-16h-205.242v-685.328h689.312v685.328h-229.242c-8.835 0-16 7.165-16 16s7.165 16 16 16h245.242c8.835 0 16-7.165 16-16v-717.328c0-8.843-7.163-16-16-16z" />
<glyph unicode="&#xe906;" glyph-name="click" d="M655.734 718.914c8.843 0 16 7.165 16 16v192.853c0 8.835-7.157 16-16 16s-16-7.165-16-16v-192.851c0-8.837 7.157-16.002 16-16.002zM989.547 608.398h-191.954c-8.843 0-16-7.165-16-16s7.157-16 16-16h191.954c8.843 0 16 7.165 16 16s-7.157 16-16 16zM756.046 677.171c4.109 0 8.219 1.57 11.344 4.71l135.734 136.36c6.234 6.266 6.203 16.398-0.062 22.626-6.234 6.242-16.39 6.203-22.626-0.046l-135.734-136.36c-6.234-6.266-6.203-16.398 0.062-22.626 3.11-3.109 7.203-4.664 11.282-4.664zM767.39 502.906c-6.234 6.266-16.39 6.29-22.626 0.054-6.266-6.234-6.298-16.366-0.062-22.634l135.734-136.36c3.125-3.141 7.234-4.718 11.344-4.718 4.078 0 8.171 1.547 11.282 4.656 6.266 6.234 6.298 16.374 0.062 22.626l-135.734 136.376zM544.078 681.883c3.125-3.141 7.234-4.71 11.344-4.71 4.078 0 8.171 1.555 11.282 4.664 6.266 6.227 6.298 16.36 0.062 22.626l-135.734 136.36c-6.234 6.266-16.39 6.304-22.626 0.046-6.266-6.227-6.298-16.36-0.062-22.626l135.734-136.36zM683.234 613.312c-0.042 0.083-0.122 0.13-0.165 0.211-0.763 1.32-1.638 2.51-2.771 3.581-1.042 1.090-2.2 1.928-3.475 2.674-0.107 0.056-0.17 0.16-0.278 0.214-0.058 0.029-0.122 0.019-0.179 0.046-4.411 2.382-9.736 2.922-14.571 0.523l-566.357-280.171c-0.242-0.118-0.379-0.344-0.613-0.474-0.928-0.512-1.69-1.242-2.512-1.944-0.821-0.706-1.661-1.347-2.309-2.186-0.16-0.206-0.4-0.306-0.55-0.522-0.426-0.603-0.523-1.304-0.854-1.941-0.526-1.011-1.050-1.976-1.352-3.072-0.272-0.986-0.322-1.955-0.4-2.962-0.085-1.034-0.184-2.024-0.064-3.070 0.13-1.107 0.493-2.118 0.846-3.178 0.232-0.693 0.222-1.416 0.557-2.090 0.144-0.291 0.378-0.499 0.536-0.778 0.262-0.461 0.582-0.859 0.891-1.296 0.893-1.256 1.917-2.342 3.088-3.266 0.24-0.189 0.357-0.467 0.61-0.645l124.592-87.768-194.794-195.701c-6.203-6.234-6.203-16.328 0-22.563l49.75-49.984c3-3.016 7.094-4.718 11.344-4.718s8.344 1.702 11.344 4.718l194.659 195.565 87.278-125.066c0.147-0.211 0.397-0.28 0.552-0.482 1.232-1.616 2.784-2.958 4.629-4.034 0.29-0.168 0.494-0.459 0.792-0.608 0.042-0.021 0.064-0.059 0.104-0.080 2.266-1.125 4.672-1.64 7.032-1.64 0.006 0 0.013 0.003 0.019 0.003 0.003 0 0.008-0.003 0.011-0.003 0.117 0 0.234 0.050 0.35 0.053 1.411 0.034 2.803 0.23 4.146 0.626 0.48 0.141 0.918 0.418 1.387 0.605 0.984 0.395 1.95 0.805 2.842 1.387 0.131 0.086 0.285 0.112 0.414 0.203 0.253 0.176 0.373 0.453 0.611 0.64 1.174 0.917 2.202 1.997 3.096 3.245 0.33 0.458 0.659 0.883 0.934 1.371 0.166 0.293 0.41 0.515 0.56 0.822l278.891 569.024c2.379 4.848 1.818 10.182-0.587 14.589-0.019 0.045-0.013 0.094-0.035 0.138zM84.203-9.078l-27.171 27.298 196.936 197.859c0.386 0.387 0.53 0.896 0.867 1.31 0.251 0.307 0.635 0.422 0.867 0.752 0.366 0.52 0.442 1.128 0.738 1.674 0.528 0.968 0.984 1.909 1.296 2.946 0.299 0.984 0.459 1.938 0.565 2.944 0.107 1.022 0.15 1.998 0.061 3.022-0.090 1.032-0.302 1.994-0.59 2.99-0.277 0.968-0.6 1.875-1.061 2.787-0.488 0.968-1.101 1.818-1.79 2.682-0.386 0.485-0.563 1.072-1.014 1.518-0.333 0.333-0.776 0.45-1.13 0.747-0.355 0.299-0.547 0.715-0.933 0.987l-118.102 83.197 501.275 247.974-246.829-503.566-82.688 118.488c-0.29 0.413-0.731 0.622-1.051 1-0.312 0.373-0.442 0.837-0.794 1.187-0.44 0.44-1.016 0.61-1.493 0.987-0.83 0.653-1.645 1.23-2.571 1.701-0.974 0.501-1.942 0.861-2.982 1.147-0.925 0.258-1.814 0.44-2.771 0.53-1.082 0.099-2.109 0.072-3.187-0.048-0.981-0.104-1.907-0.277-2.866-0.565-1.026-0.309-1.965-0.741-2.925-1.261-0.534-0.286-1.133-0.355-1.643-0.709-0.419-0.291-0.632-0.738-1.014-1.061-0.37-0.309-0.829-0.435-1.174-0.782l-196.824-197.736z" />
<glyph unicode="&#xe907;" glyph-name="check-mark" d="M511.984-40.968c-268.374 0-486.718 219.342-486.718 488.968 0 269.618 218.344 488.968 486.718 488.968 123.594 0 241.437-46.602 331.813-131.227 6.453-6.038 6.781-16.165 0.734-22.618-6.032-6.437-16.157-6.766-22.61-0.742-84.421 79.056-194.499 122.587-309.938 122.587-250.734 0-454.718-204.992-454.718-456.968 0-251.968 203.984-456.968 454.718-456.968 250.75 0 454.75 205 454.75 456.968 0 56.954-10.298 112.499-30.578 165.086-3.187 8.242 0.922 17.501 9.157 20.688 8.266 3.157 17.501-0.922 20.688-9.171 21.718-56.274 32.734-115.696 32.734-176.602-0.002-269.627-218.362-488.97-486.752-488.97zM481.501 249.094c-3.734 0-7.485 1.298-10.515 3.938l-174.141 151.875c-6.656 5.813-7.344 15.922-1.547 22.578 5.843 6.656 15.938 7.336 22.578 1.547l162.39-141.626 450.282 490.187c6 6.531 16.109 6.922 22.61 0.962 6.499-5.976 6.938-16.094 0.954-22.602l-460.829-501.688c-3.141-3.422-7.453-5.171-11.781-5.171z" />
<glyph unicode="&#xe908;" glyph-name="shield" d="M512-58.906c-5.922 0-11.36 3.266-14.133 8.499-12.602 23.75-47.32 38.843-91.274 57.954-114.36 49.734-287.171 124.875-313.702 463.984l-13.157 297.984c-0.382 8.734 6.32 16.157 15.046 16.672 2.64 0.157 265.437 17.298 405.664 163.781 2.938 3.078 6.992 4.859 11.25 4.938 4.149-0.016 8.374-1.531 11.43-4.499 152.086-147.109 403.61-164.062 406.133-164.219 8.71-0.531 15.39-7.954 15.008-16.672l-13.125-297.437c-23.586-338.046-196.571-412.922-311.046-462.469-45.195-19.563-80.899-35.016-93.914-59.922-2.75-5.266-8.187-8.578-14.133-8.594-0.016 0-0.032 0-0.048 0zM112.382 755.531l12.445-282.046c24.992-319.39 180.781-387.125 294.523-436.594 37.64-16.36 71.234-30.968 92.499-52.906 21.773 23.062 56.539 38.109 95.531 54.984 113.781 49.25 269.61 116.688 291.813 434.922l12.422 281.702c-57.835 5.907-259.624 35-399.226 161.046-131.25-126.483-340.718-155.328-400.008-161.109zM437.024 336.062c-0.171 0-0.336 0-0.507 0.016-4.336 0.125-8.422 2.016-11.336 5.219l-97.366 107.187c-5.938 6.547-5.453 16.672 1.086 22.61 6.555 5.922 16.68 5.422 22.602-1.078l86.258-94.968 263.968 255.829c6.336 6.157 16.469 5.984 22.626-0.344 6.149-6.344 5.992-16.485-0.36-22.626l-275.835-267.328c-2.987-2.907-6.987-4.517-11.134-4.517z" />
<glyph unicode="&#xe909;" glyph-name="layers" d="M512.883 272.563c-7.938 0-15.883 2.125-25.39 6.344l-456.712 237.765c-12.32 6.485-19.922 20.282-19.453 35.187 0.445 14.016 8.227 26.078 20.304 31.501l455.531 214.36c13.634 6.656 35.032 6.843 50.664 0.266l456.422-214.75c0.149-0.078 0.298-0.157 0.445-0.219 10.766-5.485 17.485-17.016 17.968-30.843 0.515-14.766-6.149-28.515-16.992-35.032l-456.654-237.797c-9.845-4.547-17.984-6.781-26.133-6.781zM512.485 770.843c-4.563 0-8.899-0.718-11.469-1.984l-456.032-214.594c-1.453-0.64-1.64-2.61-1.672-3.437-0.086-2.702 1.133-5.187 2.32-5.813l455.734-237.298c10.024-4.406 13.219-4.422 23.57 0.344l455.109 236.984c0.726 1.078 1.25 7.501-0.141 9.563l-455.091 214.141c-3.43 1.437-7.984 2.093-12.328 2.093zM511.992 181.219c-2.493 0-5.024 0.578-7.39 1.813l-484.688 253c-7.829 4.094-10.867 13.75-6.781 21.594 4.101 7.829 13.758 10.859 21.594 6.781l484.688-253c7.829-4.094 10.867-13.75 6.781-21.594-2.859-5.469-8.429-8.594-14.203-8.594zM512.024 181.219c-5.773 0-11.344 3.125-14.203 8.594-4.086 7.829-1.046 17.501 6.781 21.594l484.68 253c7.859 4.094 17.501 1.046 21.594-6.781 4.086-7.829 1.046-17.501-6.781-21.594l-484.68-253c-2.368-1.235-4.899-1.813-7.39-1.813zM511.992 93.187c-2.493 0-5.024 0.578-7.39 1.813l-484.688 253c-7.829 4.094-10.867 13.75-6.781 21.594 4.101 7.829 13.758 10.843 21.594 6.781l484.688-253c7.829-4.094 10.867-13.75 6.781-21.594-2.859-5.469-8.429-8.594-14.203-8.594zM512.024 93.187c-5.773 0-11.344 3.125-14.203 8.594-4.086 7.829-1.046 17.501 6.781 21.594l484.68 253c7.859 4.078 17.501 1.062 21.594-6.781 4.086-7.829 1.046-17.501-6.781-21.594l-484.68-253c-2.368-1.234-4.899-1.813-7.39-1.813z" />
<glyph unicode="&#xe90a;" glyph-name="switches" d="M788.062 382.906h-547.472c-0.736 0.006-1.446 0.109-2.184 0.109s-1.448-0.102-2.184-0.109h-0.285c-117.813 0-213.672-95.859-213.672-213.672 0-117.829 95.859-213.688 213.672-213.688h0.597c0.63-0.006 1.24-0.094 1.872-0.094s1.242 0.088 1.872 0.094h547.784c117.813 0 213.672 95.859 213.672 213.688 0 117.813-95.859 213.672-213.672 213.672zM236.533-12.453c-100.662 1.008-182.267 82.078-182.267 181.688 0 99.506 81.438 180.498 181.954 181.672h4.373c100.515-1.174 181.954-82.166 181.954-181.672 0-99.61-81.605-180.68-182.267-181.688h-3.746zM788.062-12.453h-436.317c61.57 37.715 102.802 104.946 102.802 181.688 0 76.731-41.219 143.954-102.776 181.672h436.291c100.171 0 181.672-81.501 181.672-181.672 0-100.189-81.501-181.688-181.672-181.688zM1001.734 726.766c0 2.893-0.325 5.704-0.44 8.568-0.179 4.422-0.232 8.875-0.677 13.224-0.072 0.71-0.242 1.394-0.322 2.102-11.218 99.826-91.43 179.042-191.731 188.643-7.554 0.794-15.21 1.242-22.971 1.242-1.37 0-2.693-0.178-4.054-0.203h-545.602c-117.813 0-213.672-95.859-213.672-213.672 0-117.829 95.859-213.688 213.672-213.688h552.125c117.813 0 213.672 95.859 213.672 213.688 0 0.016-0.002 0.032-0.002 0.046s0.002 0.034 0.002 0.050zM785.594 544.984c-101.531 0-184.141 81.547-184.141 181.781 0 98.882 80.435 179.418 180.080 181.578h6.53c5.814 0 11.549-0.334 17.226-0.872 85.542-9.026 153.699-76.104 163.229-160.442 0.067-0.587 0.206-1.15 0.267-1.739 0.381-3.698 0.426-7.485 0.576-11.243 0.099-2.45 0.371-4.856 0.373-7.33-0.026-100.211-82.624-181.733-184.139-181.733zM235.938 544.984c-100.171 0-181.672 81.501-181.672 181.688 0 100.171 81.501 181.672 181.672 181.672h436.136c-61.47-37.736-102.621-104.91-102.621-181.578 0-76.806 41.302-144.083 102.958-181.781h-436.474z" />
<glyph unicode="&#xe90b;" glyph-name="divi" d="M512-49.469c-272.75 0-494.656 223.157-494.656 497.469s221.906 497.469 494.656 497.469 494.656-223.157 494.656-497.469-221.906-497.469-494.656-497.469zM512 913.469c-255.109 0-462.656-208.813-462.656-465.469s207.547-465.469 462.656-465.469 462.656 208.813 462.656 465.469-207.547 465.469-462.656 465.469zM375.485 184.344h-16v527.234l31.078 0.032c87.797 0.266 208.453 0.672 283.406-74.032 43.501-43.374 65.563-107.171 65.563-189.64-0.002-263.594-227.893-263.594-364.048-263.594zM391.485 679.61v-463.203c168.437 1.203 316.046 24.187 316.046 231.531 0 73.64-18.891 129.829-56.157 166.968-65.328 65.11-177.672 64.97-259.89 64.704z" />
<glyph unicode="&#xe90c;" glyph-name="devices" d="M249.032 89.234c-25.946 0-47.054-21.046-47.054-46.906 0-25.875 21.109-46.922 47.054-46.922 25.962 0 47.086 21.046 47.086 46.922-0.002 25.859-21.126 46.906-47.086 46.906zM249.032 19.406c-12.71 0-23.054 10.282-23.054 22.922 0 12.626 10.344 22.906 23.054 22.906 12.726 0 23.086-10.282 23.086-22.906-0.002-12.64-10.36-22.922-23.086-22.922zM596.954 144.109c-25.962 0-47.086-21.046-47.086-46.906 0-25.875 21.125-46.922 47.086-46.922s47.078 21.046 47.078 46.922c0 25.859-21.118 46.906-47.078 46.906zM596.954 74.282c-12.726 0-23.086 10.282-23.086 22.922 0 12.626 10.36 22.906 23.086 22.906s23.078-10.282 23.078-22.906c0-12.64-10.352-22.922-23.078-22.922zM596.941 853.61c9.149 0 16.517 7.374 16.517 16.453 0 9.062-7.368 16.402-16.517 16.402-9.096 0-16.48-7.339-16.48-16.402 0-9.078 7.386-16.453 16.48-16.453zM899.195 949.688h-604.493c-22.696 0-41.165-18.422-41.165-41.062v-357.922h-128.757c-22.688 0-41.141-18.422-41.141-41.062v-522.266c0-22.64 18.453-41.062 41.141-41.062h248.507c22.696 0 41.165 18.422 41.165 41.062v12.797h484.742c22.696 0 41.165 18.422 41.165 41.062v867.39c0 22.64-18.469 41.062-41.165 41.062zM382.453-12.626c0-5-4.109-9.062-9.165-9.062h-248.507c-5.038 0-9.141 4.062-9.141 9.062v522.266c0 5 4.101 9.062 9.141 9.062h248.507c5.054 0 9.165-4.062 9.165-9.062v-522.266zM908.36 41.234c0-5-4.109-9.062-9.165-9.062h-484.742v477.469c0 22.64-18.469 41.062-41.165 41.062h-87.75v357.923c0 5 4.109 9.062 9.165 9.062h604.493c5.054 0 9.165-4.062 9.165-9.062v-867.392z" />
<glyph unicode="&#xe90d;" glyph-name="blog" d="M120 777.6c11.2 0 19.2 9.6 19.2 20.8s-9.6 20.8-19.2 20.8c-11.2 0-19.2-9.6-19.2-20.8-1.6-11.2 8-20.8 19.2-20.8zM188.8 777.6c11.2 0 19.2 9.6 19.2 20.8s-9.6 20.8-19.2 20.8-19.2-9.6-19.2-20.8c-1.6-11.2 8-20.8 19.2-20.8zM257.6 777.6c11.2 0 19.2 9.6 19.2 20.8s-9.6 20.8-19.2 20.8-19.2-9.6-19.2-20.8c0-11.2 8-20.8 19.2-20.8zM307.2 633.6h-158.4c-17.6 0-32-14.4-32-32v-158.4c0-17.6 14.4-32 32-32h156.8c17.6 0 32 14.4 32 32v158.4c1.6 17.6-12.8 32-30.4 32zM307.2 443.2h-156.8v158.4h156.8v-158.4zM435.2 411.2h156.8c17.6 0 32 14.4 32 32v158.4c0 17.6-14.4 32-32 32h-156.8c-17.6 0-32-14.4-32-32v-158.4c0-17.6 14.4-32 32-32zM435.2 601.6h156.8v-158.4h-156.8v158.4zM878.4 633.6h-156.8c-17.6 0-32-14.4-32-32v-158.4c0-17.6 14.4-32 32-32h156.8c17.6 0 32 14.4 32 32v158.4c0 17.6-14.4 32-32 32zM878.4 443.2h-156.8v158.4h156.8v-158.4zM971.2 867.2h-918.4c-17.6 0-32-14.4-32-32v-776c0-17.6 14.4-32 32-32h918.4c17.6 0 32 14.4 32 32v776c0 17.6-14.4 32-32 32zM971.2 835.2v-72h-918.4v72h918.4zM52.8 60.8v670.4h918.4v-670.4h-918.4zM323.2 379.2h-190.4c-9.6 0-16-6.4-16-16s6.4-16 16-16h188.8c9.6 0 16 6.4 16 16s-6.4 16-14.4 16zM323.2 308.8h-190.4c-9.6 0-16-6.4-16-16s6.4-16 16-16h188.8c9.6 0 16 6.4 16 16s-6.4 16-14.4 16zM268.8 230.4h-136c-9.6 0-16-6.4-16-16s6.4-16 16-16h134.4c9.6 0 16 6.4 16 16s-6.4 16-14.4 16zM894.4 379.2h-188.8c-9.6 0-16-6.4-16-16s6.4-16 16-16h188.8c9.6 0 16 6.4 16 16s-6.4 16-16 16zM894.4 308.8h-188.8c-9.6 0-16-6.4-16-16s6.4-16 16-16h188.8c9.6 0 16 6.4 16 16s-6.4 16-16 16zM841.6 230.4h-134.4c-9.6 0-16-6.4-16-16s6.4-16 16-16h134.4c9.6 0 16 6.4 16 16s-8 16-16 16zM558.4 230.4h-134.4c-9.6 0-16-6.4-16-16s6.4-16 16-16h134.4c9.6 0 16 6.4 16 16s-8 16-16 16zM612.8 379.2h-190.4c-9.6 0-16-6.4-16-16s6.4-16 16-16h188.8c9.6 0 16 6.4 16 16s-6.4 16-14.4 16zM612.8 308.8h-190.4c-9.6 0-16-6.4-16-16s6.4-16 16-16h188.8c9.6 0 16 6.4 16 16s-6.4 16-14.4 16z" />
<glyph unicode="&#xe90e;" glyph-name="preloader" d="M648.334 861.922c13.808-58.478-22.404-117.078-80.882-130.886s-117.078 22.404-130.886 80.882c-13.808 58.478 22.404 117.078 80.882 130.886s117.078-22.404 130.886-80.882zM309.809 778.169c36.865-36.865 36.865-96.635 0-133.5s-96.635-36.865-133.5 0c-36.865 36.865-36.865 96.635 0 133.5s96.635 36.865 133.5 0zM203.2 420.8c0-45.95-37.25-83.2-83.2-83.2s-83.2 37.25-83.2 83.2c0 45.95 37.25 83.2 83.2 83.2s83.2-37.25 83.2-83.2zM241.6 188.8c-35.2 0-64-28.8-64-64s28.8-64 64-64c35.2 0 64 28.8 64 64s-27.2 64-64 64zM590.4 3.2c0-29.161-23.639-52.8-52.8-52.8s-52.8 23.639-52.8 52.8c0 29.161 23.639 52.8 52.8 52.8s52.8-23.639 52.8-52.8zM832 166.4c-22.4 0-41.6-19.2-41.6-41.6s19.2-41.6 41.6-41.6 41.6 19.2 41.6 41.6c0 24-19.2 41.6-41.6 41.6zM985.6 422.4c0-15.022-12.178-27.2-27.2-27.2s-27.2 12.178-27.2 27.2c0 15.022 12.178 27.2 27.2 27.2s27.2-12.178 27.2-27.2zM836.8 689.6c9.6 0 19.2 8 19.2 19.2s-8 19.2-19.2 19.2c-9.6 0-19.2-8-19.2-19.2s8-19.2 19.2-19.2z" />
<glyph unicode="&#xe90f;" glyph-name="share" d="M848 304c-60.8 0-113.6-32-142.4-81.6l-281.6 144c9.6 24 16 51.2 16 80 0 27.2-4.8 51.2-14.4 75.2l289.6 136c30.4-41.6 78.4-67.2 132.8-67.2 91.2 0 166.4 75.2 166.4 168s-75.2 168-166.4 168-166.4-75.2-166.4-168c0-25.6 6.4-49.6 16-72l-284.8-134.4c-36.8 67.2-107.2 112-187.2 112-120 0-216-96-216-216s96-216 214.4-216c78.4 0 147.2 43.2 185.6 107.2l281.6-144c-6.4-17.6-9.6-36.8-9.6-57.6 0-92.8 75.2-168 166.4-168s166.4 75.2 166.4 168-75.2 166.4-166.4 166.4zM848 894.4c73.6 0 134.4-60.8 134.4-136s-60.8-134.4-134.4-134.4-134.4 60.8-134.4 136 60.8 134.4 134.4 134.4zM224 264c-100.8 0-182.4 83.2-182.4 184s81.6 184 182.4 184 182.4-83.2 182.4-184-81.6-184-182.4-184zM848 1.6c-73.6 0-134.4 60.8-134.4 136s60.8 136 134.4 136 134.4-60.8 134.4-136c0-75.2-60.8-136-134.4-136z" />
<glyph unicode="&#xe910;" glyph-name="header" d="M958.4 872h-892.8c-27.2 0-48-20.8-48-48v-752c0-27.2 20.8-48 48-48h894.4c27.2 0 48 20.8 48 48v752c-1.6 25.6-22.4 48-49.6 48zM65.6 840h894.4c9.6 0 16-6.4 16-16v-137.6h-926.4v137.6c0 8 6.4 16 16 16zM958.4 56h-892.8c-9.6 0-16 6.4-16 16v582.4h926.4v-580.8c-1.6-9.6-8-17.6-17.6-17.6z" />
<glyph unicode="&#xe911;" glyph-name="footer" d="M65.6 24h894.4c27.2 0 48 20.8 48 48v752c0 27.2-20.8 48-48 48h-894.4c-27.2 0-48-20.8-48-48v-752c0-25.6 20.8-48 48-48zM958.4 56h-892.8c-9.6 0-16 6.4-16 16v137.6h926.4v-137.6c-1.6-8-8-16-17.6-16zM65.6 840h894.4c9.6 0 16-6.4 16-16v-580.8h-926.4v580.8c0 8 6.4 16 16 16z" />
<glyph unicode="&#xe912;" glyph-name="hamburger" d="M512 924.8c-264 0-476.8-212.8-476.8-476.8s214.4-476.8 476.8-476.8c264 0 476.8 214.4 476.8 476.8 0 264-212.8 476.8-476.8 476.8zM512 3.2c-246.4 0-444.8 198.4-444.8 444.8s198.4 444.8 444.8 444.8 444.8-198.4 444.8-444.8-198.4-444.8-444.8-444.8zM736 644.8h-448c-9.6 0-16-6.4-16-16s6.4-16 16-16h448c9.6 0 16 6.4 16 16s-6.4 16-16 16zM736 459.2h-448c-9.6 0-16-6.4-16-16s6.4-16 16-16h448c9.6 0 16 6.4 16 16s-6.4 16-16 16zM736 283.2h-448c-9.6 0-16-6.4-16-16s6.4-16 16-16h448c9.6 0 16 6.4 16 16s-6.4 16-16 16z" />
<glyph unicode="&#xe913;" glyph-name="import" d="M369.6 462.4c-4.8 0-8-1.6-11.2-4.8-6.4-6.4-4.8-16 1.6-22.4l142.4-129.6c6.4-4.8 16-4.8 20.8 0l142.4 129.6c6.4 6.4 6.4 16 1.6 22.4-6.4 6.4-16 6.4-22.4 1.6l-116.8-107.2v587.2c0 9.6-6.4 16-16 16s-16-6.4-16-16v-587.2l-115.2 105.6c-3.2 3.2-8 4.8-11.2 4.8zM872 691.2h-244.8c-9.6 0-16-6.4-16-16s6.4-16 16-16h228.8v-684.8h-688v684.8h204.8c9.6 0 16 6.4 16 16s-6.4 16-16 16h-220.8c-9.6 0-16-6.4-16-16v-716.8c0-9.6 6.4-16 16-16h721.6c9.6 0 16 6.4 16 16v716.8c-1.6 8-8 16-17.6 16z" />
<glyph unicode="&#xe914;" glyph-name="cart1" d="M861.298 85.843c-0.851 4.789-84.61 480.602-84.39 616.835l0.024 16.024h-92.456c-6.016 87.264-78.741 156.469-167.506 156.469s-161.49-69.205-167.506-156.469h-102.8l-0.406-15.578c-3.805-143.962-82.93-616.758-83.813-622.024-2.101-15.618 2.171-30.437 12.038-41.718 10.304-11.789 25.57-18.555 41.883-18.555h591.726c15.664 0 30.531 6.829 40.781 18.726 10.634 12.352 15.072 28.642 12.424 46.29zM516.968 843.171c71.115 0 129.576-54.862 135.506-124.469h-271.010c5.928 69.606 64.389 124.469 135.504 124.469zM824.626 60.437c-4.165-4.835-10.187-7.61-16.531-7.61h-591.728c-6.968 0-13.626 2.843-17.789 7.618-3.813 4.352-5.298 9.867-4.493 15.867 3.165 18.875 75.266 449.688 83.539 610.39h71.25v-32.211c-5.592-4.627-9.232-11.534-9.232-19.36 0-13.934 11.298-25.232 25.232-25.232s25.232 11.298 25.232 25.232c0 7.827-3.64 14.733-9.232 19.362v32.21h272.187v-32.21c-5.592-4.627-9.232-11.534-9.232-19.362 0-13.934 11.298-25.232 25.232-25.232 13.936 0 25.232 11.298 25.232 25.232 0 7.827-3.638 14.733-9.232 19.362v32.21h60.125c5.195-155.422 81.242-587.437 84.531-606.016 1.51-10.093-1.936-16.586-5.091-20.25z" />
<glyph unicode="&#xe915;" glyph-name="quick-view" d="M954.766 446.726c-131.626 161.344-295.282 248.461-459.906 245.038-158.392-3.195-309.752-90.405-426.221-245.554l-8.374-11.149 9.906-9.821c148.25-146.899 294.578-220.336 441.141-220.336 146.531 0 293.312 73.453 442.298 220.304l10.374 10.227-9.218 11.29zM102.75 438.133c109.171 140.141 248.203 218.718 392.75 221.64 150.954 3.157 301.563-75.664 425.125-222.016-279.454-269.187-539.923-269.046-817.875 0.376zM512 603.298c-85.626 0-155.298-69.664-155.298-155.298s69.672-155.298 155.298-155.298 155.298 69.664 155.298 155.298-69.672 155.298-155.298 155.298zM512 324.702c-67.984 0-123.298 55.312-123.298 123.298s55.314 123.298 123.298 123.298 123.298-55.314 123.298-123.298-55.314-123.298-123.298-123.298z" />
<glyph unicode="&#xe916;" glyph-name="documentation" d="M177.6 99.2h-68.8c-16 0-28.8 12.8-28.8 28.8v763.2c0 16 12.8 28.8 28.8 28.8h603.2c16 0 28.8-12.8 28.8-28.8 0-9.6 6.4-16 16-16s16 6.4 16 16c0 33.6-27.2 60.8-60.8 60.8h-603.2c-33.6 1.6-60.8-27.2-60.8-60.8v-763.2c0-33.6 27.2-60.8 60.8-60.8h67.2c9.6 0 16 6.4 16 16s-6.4 16-14.4 16zM974.4 630.4c-1.6 1.6-1.6 3.2-3.2 4.8 0 0 0 0 0 0l-201.6 200c0 0 0 0 0 0v0c0 0 0 0 0 0-1.6 1.6-3.2 1.6-4.8 3.2-1.6 0-3.2 1.6-4.8 1.6 0 0 0 0-1.6 0 0 0 0 0 0 0s0 0 0 0h-448c-33.6 0-60.8-27.2-60.8-60.8v-763.2c0-33.6 27.2-60.8 60.8-60.8h603.2c33.6 0 60.8 27.2 60.8 60.8v608c0 0 0 0 0 0 1.6 1.6 1.6 4.8 0 6.4zM774.4 785.6l145.6-145.6h-142.4c-1.6 0-3.2 1.6-3.2 3.2v142.4zM913.6-12.8h-603.2c-16 0-28.8 12.8-28.8 28.8v763.2c0 16 12.8 28.8 28.8 28.8h432v-164.8c0-19.2 16-35.2 35.2-35.2h166.4v-592c0-16-12.8-28.8-30.4-28.8zM793.6 440h-361.6c-9.6 0-16-6.4-16-16s6.4-16 16-16h361.6c9.6 0 16 6.4 16 16s-8 16-16 16zM793.6 337.6h-361.6c-9.6 0-16-6.4-16-16s6.4-16 16-16h361.6c9.6 0 16 6.4 16 16s-8 16-16 16zM793.6 235.2h-361.6c-9.6 0-16-6.4-16-16s6.4-16 16-16h361.6c9.6 0 16 6.4 16 16s-8 16-16 16zM793.6 132.8h-361.6c-9.6 0-16-6.4-16-16s6.4-16 16-16h361.6c9.6 0 16 6.4 16 16s-8 16-16 16zM432 611.2h144c9.6 0 16 6.4 16 16s-6.4 16-16 16h-144c-9.6 0-16-6.4-16-16s6.4-16 16-16zM432 515.2h144c9.6 0 16 6.4 16 16s-6.4 16-16 16h-144c-9.6 0-16-6.4-16-16s6.4-16 16-16z" />
<glyph unicode="&#xe917;" glyph-name="support" d="M873.748 88.19c96.358 96.358 150.252 223.746 150.252 360.932 0 135.554-53.896 264.574-150.252 360.932 0 0 0 0 0 0s0 0 0 0 0 0 0 0c-199.248 197.615-524.249 197.615-723.497-1.632 0 0 0 0 0 0s0 0 0 0 0 0 0 0c-96.358-96.358-150.252-223.746-150.252-360.932 0-135.554 53.896-264.574 150.252-360.932 0 0 0 0 0 0s0 0 0 0 0 0 0 0c99.623-99.623 230.278-148.619 362.565-148.619 130.655 0 261.309 50.629 360.932 150.252 0 0 0 0 0 0s0 0 0 0 0 0 0 0zM862.317 122.486l-181.283 179.649c35.929 40.83 53.896 91.459 53.896 145.352s-19.599 104.524-53.896 145.352l181.283 179.649c83.293-88.192 129.020-204.147 129.020-326.636 0-119.222-45.729-235.177-129.020-323.369zM377.262 313.568c-35.929 35.929-55.528 83.293-55.528 133.922s19.599 97.991 55.528 133.922c75.127 73.492 195.981 73.492 269.473 0 0 0 0 0 0 0 35.929-35.929 55.528-83.293 55.528-133.922s-19.599-97.991-55.528-133.922c-73.492-73.492-194.349-73.492-269.473 0zM839.452 796.989l-181.283-179.649c-83.293 71.86-209.046 71.86-292.339 0l-181.283 179.649c184.548 171.483 470.356 171.483 654.904 0zM161.683 774.125l181.283-179.649c-35.929-40.83-53.896-91.459-53.896-145.352s19.599-104.524 53.896-145.352l-181.283-179.649c-83.293 88.192-129.020 204.147-129.020 326.636 0 119.222 45.729 235.177 129.020 323.369zM184.548 99.623l181.283 179.649c42.463-35.929 93.091-53.896 145.352-53.896s104.524 17.964 145.352 53.896l181.283-179.649c-182.916-171.483-468.721-171.483-653.271 0z" />
<glyph unicode="&#xe918;" glyph-name="export-import" d="M542.4 200l-201.6-188.8v512c0 9.6-6.4 16-16 16s-16-6.4-16-16v-512l-201.6 188.8c-6.4 6.4-16 6.4-22.4 0s-6.4-16 0-22.4l228.8-212.8c3.2-3.2 6.4-4.8 11.2-4.8s8 1.6 11.2 4.8l228.8 211.2c6.4 6.4 6.4 16 0 22.4-4.8 6.4-16 6.4-22.4 1.6zM944 723.2l-228.8 214.4c-6.4 6.4-16 6.4-22.4 0l-228.8-214.4c-6.4-6.4-6.4-16 0-22.4 3.2-3.2 8-4.8 11.2-4.8s8 1.6 11.2 4.8l201.6 187.2v-512c0-9.6 6.4-16 16-16s16 6.4 16 16v512l201.6-188.8c6.4-6.4 16-6.4 22.4 0 6.4 8 6.4 17.6 0 24z" />
<glyph unicode="&#xe919;" glyph-name="info" d="M544 640c12.8-1.6 27.2-3.2 40-6.4 35.2-9.6 56-36.8 57.6-73.6 1.6-32-6.4-60.8-17.6-89.6-40-102.4-78.4-203.2-118.4-305.6-4.8-12.8-8-27.2-11.2-40-1.6-4.8 0-9.6 0-14.4 1.6-9.6 9.6-14.4 19.2-12.8 6.4 1.6 14.4 4.8 20.8 8 19.2 11.2 33.6 25.6 48 41.6 16 17.6 32 33.6 48 51.2 4.8 4.8 11.2 9.6 17.6 14.4s11.2 3.2 16-1.6c6.4-6.4 11.2-14.4 6.4-22.4-3.2-9.6-8-17.6-14.4-25.6-22.4-32-51.2-59.2-80-83.2-44.8-36.8-92.8-67.2-148.8-86.4-30.4-9.6-60.8-14.4-94.4-11.2-33.6 4.8-57.6 24-65.6 52.8-3.2 14.4-3.2 28.8-1.6 43.2 6.4 48 20.8 94.4 40 139.2 38.4 96 78.4 192 118.4 288 3.2 8 6.4 16 4.8 25.6-1.6 11.2-9.6 16-20.8 16-11.2-1.6-20.8-4.8-28.8-11.2-12.8-11.2-27.2-22.4-38.4-33.6-17.6-17.6-33.6-36.8-49.6-54.4-6.4-6.4-12.8-12.8-19.2-17.6s-12.8-4.8-19.2 0c-6.4 4.8-9.6 11.2-8 19.2 1.6 6.4 4.8 11.2 8 16 8 9.6 14.4 20.8 24 28.8 36.8 40 73.6 76.8 121.6 102.4 46.4 25.6 94.4 41.6 145.6 43.2zM606.4 688c-14.4 3.2-28.8 4.8-43.2 9.6-41.6 16-57.6 54.4-56 92.8 3.2 54.4 48 97.6 102.4 104 16 1.6 33.6 1.6 49.6-3.2 48-12.8 75.2-56 67.2-105.6s-46.4-86.4-96-94.4c-8-1.6-16-1.6-24-3.2 0 0 0 0 0 0z" />
<glyph unicode="&#xe91a;" glyph-name="clear-cache" d="M943.5 874.8c-8 24.1-24.7 43.2-47.1 54l-3.6 1.7c-22.4 10.7-47.8 11.8-71.6 3-23.6-8.8-42.6-26.2-53.6-49.1v-0.2c-0.1 0-116.2-264-116.2-264-20.2-0.2-40.8-3.5-61.5-10-47.9-15-92.9-46.7-126.9-89.4-29.8-37.4-64.7-70.9-103.8-99.6-31.3-23.1-65.4-43.1-101.3-59.6-61.3-28.2-107.2-36.4-107.7-36.5-4.9-0.8-9-4-11.1-8.5s-1.8-9.7 0.8-14c75.4-124.9 198.1-209.6 287.6-258.6 94.9-51.9 188.4-82.9 223.5-82.9s1.7 0 2.5 0c12.4 0.6 17.7 6.3 20 11.1l148.8 309.8c28.7 59.7 35.6 125.7 19.5 185.9-7.8 29.2-20.6 55.3-37.5 77.4l134.2 257c11 22.9 12.7 48.6 4.8 72.5zM649.5-8.9c-8.2 0.4-28.3 3.6-64.5 15.7-24.6 8.2-51.1 18.8-77.8 30.9 22.2 19.4 51.1 48 77.3 97.8 3.9 7.3 1 16.4-6.3 20.3-7.3 3.8-16.4 1-20.3-6.3-27.7-52.8-58-78.8-80.4-97.7-9.6 4.7-19.1 9.6-28.5 14.7-38 20.4-82 47.2-125.6 80.7 17.7 7.5 39.9 19.6 58.5 32.3 6.8 4.7 8.6 14 3.9 20.8s-14 8.6-20.8 3.9c-25.6-17.5-56.7-32.3-68.5-34.7-0.2 0-0.5-0.1-0.7-0.2-43.5 36.7-85.4 80.2-119 131.1 20.2 5.3 53.3 15.4 92.7 33.5 37.9 17.3 73.9 38.5 107 62.8 31.5 23.1 60.4 49.1 86.3 77.6l338.1-167c-1.7-4.1-3.6-8.2-5.5-12.3l-145.9-303.9zM810.9 335.8l-327.9 161.9c1.2 1.5 2.4 2.9 3.6 4.4 30.3 38 70.2 66.2 112.4 79.4 43.1 13.5 85.8 11.1 123.4-7 44.4-21.3 76.5-61.9 90.5-114.4 10.7-40 9.8-82.9-2-124.4zM911.7 815.5l-128.7-246.5c-14.1 13.2-30 24.1-47.6 32.6-16.7 8-34.2 13.4-52.1 16.3l111.5 253.8c7.6 15.7 20.7 27.7 36.9 33.7 16.1 6 33.2 5.3 48.1-1.9l3.6-1.7c15-7.2 26.2-20.1 31.6-36.4 5.4-16.4 4.3-34.1-3.2-49.9zM212.5 588.6c4.4-2.1 9.1-3.1 13.7-3.1 12.2 0 23.9 7 29.6 18.8 3.8 7.8 4.3 16.6 1.6 24.8-2.8 8.4-8.6 15-16.5 18.8s-16.7 4.2-25 1.1c-8.1-3-14.6-9-18.3-16.8-7.9-16.4-1.2-35.9 14.8-43.6zM100.9 486.7c-11.2 5.4-24.8 0.5-30.2-10.8s-0.8-25 10.5-30.3c3.1-1.5 6.4-2.2 9.6-2.2 8.5 0 16.6 4.8 20.6 13 2.6 5.4 3 11.5 1.1 17.2-1.9 5.9-6 10.5-11.6 13.2z" />
</font>
</defs>
</svg>
